More Details
Evangelion : 3.0 You Can (Not) Redo

iBoy (2017).720p.H264.italian.english.Ac3-5.1.sub.ita.eng.MIRCrew

  • Category Movies
  • Type HD
  • Language English
  • Total size 1.6 GB
  • Uploaded By robbyrs
  • Downloads 3938
  • Last checked 1 day ago
  • Date uploaded 1 month ago
  • Seeders 49
  • Leechers 4

iBoy

ThrillerScience FictionAction

After an accident, Tom wakes from a coma to discover that fragments of his smart phone have been embedded in his head, and worse, that returning to normal teenage life is impossible because he has developed a strange set of super powers.

Infohash : 71184DF1BF368DFE55863D6203D51DE5D2008056

iBoy (2017).720p.H264.italian.english.Ac3-5.1.sub.ita.eng.MIRCrew


NO FOUND ONLY ORIGINAL RELEASE



My release is always in double track audio italian and Original audio
for select it use VLC or dvd player home
not use wmp


iBoy (2017)

QualitĂ  MIRCrew in HD 720p da 1,6 gb







Paese di produzione Regno Unito
Anno 2017
Durata 91 min
Genere fantascienza
Regia Adam Randall
Soggetto Joe Barton, Mark Denton, Jonny Stockwood
Produttore Gail Mutrux, Nate Bolotin, Emily Leo, Oliver Roskill, Lucan Toh
Casa di produzione XYZ Films, Wigwam Films, Pretty Pictures
Distribuzione (Italia) Netflix
Musiche Max Aruj, Steffen Thum



Bill Milner: Tom Harvey
Maisie Williams: Lucy
Jordan Bolger: Danny
Charley Palmer Rothwell: Eugene
Aymen Hamdouchi: Cutz
Miranda Richardson: Nancy "Nan" Harvey
Rory Kinnear: Ellman



Il teenager Tom Harvey vive in un quartiere di Londra sottomesso alle gang di strada e tira avanti solo grazie all'aiuto del migliore amico Danny, che gli regala un nuovo telefono cellulare e lo incoraggia a provarci con l'amica d'infanzia Lucy, che vive lì vicino. Lucy chiede di studiare assieme per gli esami a Tom, che accetta di buon grado



After being shot, Tom wakes from a coma to discover that fragments of his smart phone have been embedded in his head, and worse, that returning to normal teenage life is impossible because he has developed a strange set of superpowers.










[spoiler]
General
Unique ID : 269563948358958569350554740006145356202 (0xCACC20C5141011943C5874334B55F1AA)
Complete name : iBoy (2017).720p.h264.ita.eng.sub.ita.eng-MIRCrew\iBoy (2017).720p.h264.ita.eng.sub.ita.eng-MIRCrew.mkv
Format : Matroska
Format version : Version 2
File size : 1.55 GiB
Duration : 1h 30mn
Overall bit rate : 2 466 Kbps
Movie name : MIRCrew
Encoded date : UTC 2018-03-13 13:06:12
Writing application : Lavf54.63.100
Writing library : Lavf54.63.100
COPYRIGHT : robbyrs by iCN

Video
ID : 1
Format : AVC
Format/Info : Advanced Video Codec
Format profile : [email protected]
Format settings, CABAC : Yes
Format settings, ReFrames : 2 frames
Codec ID : V_MPEG4/ISO/AVC
Duration : 1h 30mn
Bit rate : 1 700 Kbps
Width : 1 280 pixels
Height : 528 pixels
Display aspect ratio : 2.40:1
Frame rate mode : Variable
Frame rate : 25.000 fps
Color space : YUV
Chroma subsampling : 4:2:0
Bit depth : 8 bits
Scan type : Progressive
Bits/(Pixel*Frame) : 0.101
Stream size : 1.04 GiB (67%)
Writing library : x264 core 130 r2273
Encoding settings : cabac=1 / ref=2 / deblock=1:0:0 / analyse=0x1:0x131 / me=hex / subme=7 / psy=1 / psy_rd=1.00:0.00 / mixed_ref=0 / me_range=16 / chroma_me=1 / trellis=1 / 8x8dct=0 / cqm=0 / deadzone=21,11 / fast_pskip=1 / chroma_qp_offset=-2 / threads=3 / lookahead_threads=1 / sliced_threads=0 / nr=0 / decimate=1 / interlaced=0 / bluray_compat=0 / constrained_intra=0 / bframes=3 / b_pyramid=0 / b_adapt=1 / b_bias=0 / direct=3 / weightb=1 / open_gop=0 / weightp=2 / keyint=250 / keyint_min=25 / scenecut=40 / intra_refresh=0 / rc_lookahead=40 / rc=abr / mbtree=1 / bitrate=1700 / ratetol=1.0 / qcomp=0.60 / qpmin=10 / qpmax=69 / qpstep=4 / vbv_maxrate=24000 / vbv_bufsize=24000 / nal_hrd=none / ip_ratio=1.40 / aq=1:1.00
Language : Italian
Default : Yes
Forced : No
DURATION : 01:30:05.262000000
NUMBER_OF_FRAMES : 129596
NUMBER_OF_BYTES : 4556444173
_STATISTICS_WRITING_APP : mkvmerge v10.0.0 ('To Drown In You') 32bit
_STATISTICS_WRITING_DATE_UTC : 2018-02-07 23:30:57
_STATISTICS_TAGS : BPS DURATION NUMBER_OF_FRAMES NUMBER_OF_BYTES

Audio #1
ID : 2
Format : AC-3
Format/Info : Audio Coding 3
Mode extension : CM (complete main)
Codec ID : A_AC3
Duration : 1h 30mn
Bit rate mode : Constant
Bit rate : 384 Kbps
Channel(s) : 6 channels
Channel positions : Front: L C R, Side: L R, LFE
Sampling rate : 48.0 KHz
Bit depth : 16 bits
Compression mode : Lossy
Delay relative to video : 1mn 5s
Stream size : 247 MiB (16%)
Language : Italian
Default : Yes
Forced : No
DURATION : 01:30:05.216000000
NUMBER_OF_FRAMES : 168913
NUMBER_OF_BYTES : 302692096
_STATISTICS_WRITING_APP : mkvmerge v10.0.0 ('To Drown In You') 32bit
_STATISTICS_WRITING_DATE_UTC : 2018-02-07 23:30:57
_STATISTICS_TAGS : BPS DURATION NUMBER_OF_FRAMES NUMBER_OF_BYTES

Audio #2
ID : 3
Format : AC-3
Format/Info : Audio Coding 3
Mode extension : CM (complete main)
Codec ID : A_AC3
Duration : 1h 30mn
Bit rate mode : Constant
Bit rate : 384 Kbps
Channel(s) : 6 channels
Channel positions : Front: L C R, Side: L R, LFE
Sampling rate : 48.0 KHz
Bit depth : 16 bits
Compression mode : Lossy
Delay relative to video : 1mn 5s
Stream size : 247 MiB (16%)
Language : English
Default : No
Forced : No
DURATION : 01:30:05.664000000
NUMBER_OF_FRAMES : 168927
NUMBER_OF_BYTES : 345962496
_STATISTICS_WRITING_APP : mkvmerge v10.0.0 ('To Drown In You') 32bit
_STATISTICS_WRITING_DATE_UTC : 2018-02-07 23:30:57
_STATISTICS_TAGS : BPS DURATION NUMBER_OF_FRAMES NUMBER_OF_BYTES



[/spoiler]



Files:

iBoy (2017).720p.h264.ita.eng.sub.ita.eng-MIRCrew
  • iBoy (2017).720p.h264.ita.eng.sub.ita.eng-MIRCrew.eng.srt (79.3 KB)
  • iBoy (2017).720p.h264.ita.eng.sub.ita.eng-MIRCrew.ita.srt (66.7 KB)
  • iBoy (2017).720p.h264.ita.eng.sub.ita.eng-MIRCrew.mkv (1.6 GB)
  • iBoy (2017).720p.h264.ita.eng.sub.ita.eng-MIRCrew.srt (3.9 KB)

Comments

Code:

  • udp://tracker.coppersurfer.tk:6969/announce
  • udp://tracker.opentrackr.org:1337/announce
  • udp://tracker.pirateparty.gr:6969/announce
  • udp://tracker.zer0day.to:1337/announce
  • udp://p4p.arenabg.com:1337/announce
  • udp://p4p.arenabg.ch:1337/announce
  • udp://eddie4.nl:6969/announce
  • udp://tracker.leechers-paradise.org:6969/announce
  • udp://9.rarbg.me:2740/announce
  • udp://9.rarbg.to:2740/announce
  • udp://9.rarbg.com:2710/announce
  • udp://tracker.internetwarriors.net:1337/announce
  • udp://tracker.cyberia.is:6969/announce