Spartacus: Blood and Sand – Season 1
Nils Frahm

Carnage (2011) (1080p BluRay x265 HEVC 10bit AAC 5.1 Vyndros)

  • Category Movies
  • Type HEVC/x265
  • Language English
  • Total size 2.7 GB
  • Uploaded By Vyndros
  • Downloads 497
  • Last checked 1 day ago
  • Date uploaded 1 month ago
  • Seeders 4
  • Leechers 1

Carnage

ComedyDrama

In Brooklyn Bridge Park, eleven year old Zachary Cowan strikes his eleven year old classmate Ethan Longstreet across the face with a stick after an argument. Among the more serious of Ethan's injuries is a permanently missing tooth and the possibility of a second tooth also being lost. Their respective parents learn of the altercation through Ethan's parents questioning him about his injuries. The Longstreet parents invite the Cowan parents to their Brooklyn apartment to deal with the incident in a civilized manner. They are: Penelope Longstreet, whose idea it was to invite the Cowans, she whose priorities in life include human rights and justice; Michael Longstreet, who tries to be as accommodating as possible to retain civility in any situation; Nancy Cowan, a nervous and emotionally stressed woman; and Alan Cowan, who is married more to his work as evidenced by the attachment he has to his cell phone and taking work calls at the most inopportune times.

Infohash : 9ADA4C50408CE62FC3FF0604D4610C96C7723092








Media Information


Code:

General
Format                                   : Matroska
Format version                           : Version 4 / Version 2
File size                                : 2.68 GiB
Duration                                 : 1 h 19 min
Overall bit rate                         : 4 818 kb/s
Movie name                               : Carnage 2011 1080p Blu-ray Remux AVC DTS-HD MA 5.0 - KRaLiMaRKo
Encoded date                             : UTC 2018-03-13 13:18:11
Writing application                      : mkvmerge v20.0.0 ('I Am The Sun') 64-bit
Writing library                          : libebml v1.3.5 + libmatroska v1.4.8
Writing frontend                         : StaxRip v1.7.0.6

Video
ID                                       : 1
Format                                   : HEVC
Format/Info                              : High Efficiency Video Coding
Format profile                           : Main [email protected]@Main
Codec ID                                 : V_MPEGH/ISO/HEVC
Duration                                 : 1 h 19 min
Bit rate                                 : 4 328 kb/s
Width                                    : 1 920 pixels
Height                                   : 820 pixels
Display aspect ratio                     : 2.35:1
Frame rate mode                          : Constant
Frame rate                               : 23.976 (24000/1001) FPS
Color space                              : YUV
Chroma subsampling                       : 4:2:0
Bit depth                                : 10 bits
Bits/(Pixel*Frame)                       : 0.115
Stream size                              : 2.41 GiB (90%)
Writing library                          : x265 2.7+8-613d9f443769:[Windows][GCC 7.3.0][64 bit] 10bit
Encoding settings                        : cpuid=1173503 / frame-threads=3 / numa-pools=12 / wpp / no-pmode / no-pme / no-psnr / ssim / log-level=2 / input-csp=1 / input-res=1920x820 / interlace=0 / total-frames=114551 / level-idc=0 / high-tier=1 / uhd-bd=0 / ref=3 / no-allow-non-conformance / no-repeat-headers / annexb / no-aud / no-hrd / info / hash=0 / no-temporal-layers / open-gop / min-keyint=23 / keyint=250 / gop-lookahead=0 / bframes=8 / b-adapt=2 / b-pyramid / bframe-bias=0 / rc-lookahead=50 / lookahead-slices=5 / scenecut=40 / radl=0 / no-intra-refresh / ctu=64 / min-cu-size=8 / no-rect / no-amp / max-tu-size=32 / tu-inter-depth=1 / tu-intra-depth=1 / limit-tu=0 / rdoq-level=0 / dynamic-rd=0.00 / no-ssim-rd / signhide / no-tskip / nr-intra=0 / nr-inter=0 / no-constrained-intra / no-strong-intra-smoothing / max-merge=3 / limit-refs=3 / no-limit-modes / me=3 / subme=3 / merange=57 / temporal-mvp / weightp / no-weightb / no-analyze-src-pics / deblock=0:0 / sao / no-sao-non-deblock / rd=3 / no-early-skip / no-rskip / no-fast-intra / no-tskip-fast / no-cu-lossless / no-b-intra / no-splitrd-skip / rdpenalty=0 / psy-rd=2.00 / psy-rdoq=0.00 / no-rd-refine / no-lossless / cbqpoffs=0 / crqpoffs=0 / rc=crf / crf=18.0 / qcomp=0.60 / qpstep=4 / stats-write=0 / stats-read=0 / ipratio=1.40 / pbratio=1.30 / aq-mode=3 / aq-strength=1.00 / cutree / zone-count=0 / no-strict-cbr / qg-size=32 / no-rc-grain / qpmax=69 / qpmin=0 / no-const-vbv / sar=0 / overscan=0 / videoformat=5 / range=0 / colorprim=2 / transfer=2 / colormatrix=2 / chromaloc=0 / display-window=0 / max-cll=0,0 / min-luma=0 / max-luma=1023 / log2-max-poc-lsb=8 / vui-timing-info / vui-hrd-info / slices=1 / no-opt-qp-pps / no-opt-ref-list-length-pps / no-multi-pass-opt-rps / scenecut-bias=0.05 / no-opt-cu-delta-qp / no-aq-motion / no-hdr / no-hdr-opt / no-dhdr10-opt / analysis-reuse-level=5 / scale-factor=0 / refine-intra=0 / refine-inter=0 / refine-mv=0 / no-limit-sao / ctu-info=0 / no-lowpass-dct / refine-mv-type=0 / copy-pic=1 / max-ausize-factor=1.0
Default                                  : Yes
Forced                                   : No

Audio
ID                                       : 2
Format                                   : AAC
Format/Info                              : Advanced Audio Codec
Format profile                           : LC
Codec ID                                 : A_AAC
Duration                                 : 1 h 19 min
Bit rate                                 : 448 kb/s
Channel(s)                               : 6 channels
Channel positions                        : Front: L C R, Side: L R, LFE
Sampling rate                            : 48.0 kHz
Frame rate                               : 46.875 FPS (1024 spf)
Compression mode                         : Lossy
Stream size                              : 255 MiB (9%)
Language                                 : English
Default                                  : Yes
Forced                                   : Yes

Subtitle #1
ID                                       : 3
Format                                   : PGS
Muxing mode                              : zlib
Codec ID                                 : S_HDMV/PGS
Codec ID/Info                            : Picture based subtitle format used on BDs/HD-DVDs
Duration                                 : 1 h 11 min
Bit rate                                 : 62.3 kb/s
Count of elements                        : 2938
Stream size                              : 32.0 MiB (1%)
Language                                 : English
Default                                  : No
Forced                                   : No

Subtitle #2
ID                                       : 4
Format                                   : PGS
Muxing mode                              : zlib
Codec ID                                 : S_HDMV/PGS
Codec ID/Info                            : Picture based subtitle format used on BDs/HD-DVDs
Duration                                 : 1 h 14 min
Bit rate                                 : 44.7 kb/s
Count of elements                        : 3112
Stream size                              : 23.7 MiB (1%)
Language                                 : English
Default                                  : No
Forced                                   : No



Source Information

Code:

Release:
BluRay Remux

Files:

Carnage (2011) (1080p BluRay x265 HEVC 10bit AAC 5.1 Vyndros)
  • Carnage [2011] 1080p 10bit BluRay AAC5.1 HEVC-Vyndros.mkv (2.7 GB)
  • Carnage [2011] 1080p 10bit BluRay AAC5.1 HEVC-Vyndros.srt (114.8 KB)

There are currently no comments. Feel free to leave one :)

Code:

  • udp://tracker.coppersurfer.tk:6969/announce
  • udp://tracker.zer0day.to:1337/announce
  • udp://tracker.opentrackr.org:1337/announce
  • udp://tracker.torrent.eu.org:451/announce
  • udp://tracker.ilibr.org:6969/announce
  • udp://tracker.leechers-paradise.org:6969/announce
  • udp://p4p.arenabg.com:1337/announce
  • udp://tracker.internetwarriors.net:1337/announce