Ciara - Sorry.
Lie to me

Tomb Invader 2018 720p WEB-DL DD 5.1 x264[MW]

  • Category Movies
  • Type HD
  • Language English
  • Total size 984.0 MB
  • Uploaded By moviezworldz
  • Downloads 210
  • Last checked 2 days ago
  • Date uploaded 1 month ago
  • Seeders 3
  • Leechers 0

Tomb Invader

ActionAdventure

With promises of untold treasure, two modern-day adventurers team up to enter the ancient tomb of Quin Shi Haung, and stop a madman from releasing the mercury trapped within.

Infohash : A7660987747EDC0300F2C32FC1D09A6DB949A9B2







General
Format : Matroska
Format version : Version 4 / Version 2
File size : 984 MiB
Duration : 1 h 23 min
Overall bit rate : 1 656 kb/s

Video
ID : 1
Format : AVC
Format/Info : Advanced Video Codec
Format profile : [email protected]
Format settings : CABAC / 4 Ref Frames
Format settings, CABAC : Yes
Format settings, RefFrames : 4 frames
Codec ID : V_MPEG4/ISO/AVC
Duration : 1 h 23 min
Bit rate : 1 300 kb/s
Width : 1 280 pixels
Height : 718 pixels
Display aspect ratio : 16:9
Frame rate mode : Constant
Frame rate : 23.976 (24000/1001) FPS
Color space : YUV
Chroma subsampling : 4:2:0
Bit depth : 8 bits
Scan type : Progressive
Bits/(Pixel*Frame) : 0.059
Stream size : 755 MiB (77%)
Writing library : x264 core 148 r2708 86b7198
Default : Yes
Forced : No

Audio
ID : 2
Format : AC-3
Format/Info : Audio Coding 3
Codec ID : A_AC3
Duration : 1 h 23 min
Bit rate mode : Constant
Bit rate : 384 kb/s
Channel(s) : 6 channels
Channel positions : Front: L C R, Side: L R, LFE
Sampling rate : 48.0 kHz
Frame rate : 31.250 FPS (1536 SPF)
Bit depth : 16 bits
Compression mode : Lossy
Stream size : 228 MiB (23%)
Language : English
Service kind : Complete Main
Default : No
Forced : No

Menu
00:00:00.000 : en:1
00:11:12.000 : en:2
00:21:03.000 : en:3
00:31:26.000 : en:4
00:40:30.000 : en:5
00:50:03.000 : en:6
01:00:53.000 : en:7
01:12:07.000 : en:8
01:19:44.000 : en:9












Files:

Tomb Invader 2018 720p WEB-DL DD 5.1 x264
  • Tomb Invader 2018 720p WEB-DL DD 5.1 x264.mkv (984.0 MB)

Comments

Code:

  • udp://tracker.pirateparty.gr:6969/announce
  • udp://tracker.opentrackr.org:1337/announce
  • http://tracker.opentrackr.org/announce
  • udp://tracker.vanitycore.co:6969/announce
  • udp://public.popcorn-tracker.org:6969/announce
  • udp://9.rarbg.to:2710/announce
  • udp://9.rarbg.me:2710/announce
  • udp://9.rarbg.com:2770/announce
  • udp://inferno.demonoid.pw:3391/announce
  • udp://tracker.internetwarriors.net:1337/announce
  • udp://ipv4.tracker.harry.lu:80/announce
  • udp://p4p.arenabg.ch:1337/announce
  • http://tracker.vanitycore.co:6969/announce
  • http://public.popcorn-tracker.org:6969/announce
  • udp://tracker.zer0day.to:1337/announce