Reunion Part 3
Towa no Quon Movie 2

Black Panther (2018) New HDCAM x264 -[Dual Audio] - [Hindi(Clear...

  • Category Movies
  • Type Dubs/Dual Audio
  • Language Hindi
  • Total size 759.0 MB
  • Uploaded By ictv
  • Downloads 34210
  • Last checked 1 day ago
  • Date uploaded 1 month ago
  • Seeders 106
  • Leechers 36

Black Panther

ActionAdventureDramaScience FictionThriller

T'Challa, the new ruler of the advanced kingdom of Wakanda, must defend his land from being torn apart by enemies from outside and inside the country.

Infohash : 73E5077E35C677EB8B1EEC55E4FAF7458C45444E

Black Panther (2018) New HDCAM  x264 -[Dual Audio] - [Hindi(Clear) + Eng] - 750MB - MovCr

http://www.imdb.com/title/tt1825683/

Plot Outline: T'Challa, after the death of his father, the King of Wakanda, returns home to the isolated, technologically advanced African nation to succeed to the throne and take his rightful place as king.
Tagline: Hero. Legend. King.
Rating: 6.7/10



General
Complete name                            : [movcr.com] Black Panther (2018) New HDCAM  x264 -[Dual Audio] - [Hindi(Clear) + Eng] - 750MB - MovCr\www.movcr.com - Black Panther (2018) New HDCAM  x264 -[Dual Audio] - [Hindi(Clear) + Eng] - 750MB - MovCr.mkv
Format                                   : Matroska
Format version                           : Version 4 / Version 2
File size                                : 745 MiB
Duration                                 : 2 h 1 min
Overall bit rate mode                    : Variable
Overall bit rate                         : 855 kb/s
Movie name                               : www.movcr.com
Encoded date                             : UTC 2018-02-18 07:18:20
Writing application                      : mkvmerge v20.0.0 ('I Am The Sun') 64-bit
Writing library                          : libebml v1.3.5 + libmatroska v1.4.8

Video
ID                                       : 1
Format                                   : AVC
Format/Info                              : Advanced Video Codec
Format profile                           : [email protected]
Format settings                          : CABAC / 5 Ref Frames
Format settings, CABAC                   : Yes
Format settings, RefFrames               : 5 frames
Codec ID                                 : V_MPEG4/ISO/AVC
Duration                                 : 2 h 1 min
Bit rate                                 : 640 kb/s
Width                                    : 720 pixels
Height                                   : 400 pixels
Display aspect ratio                     : 16:9
Frame rate mode                          : Constant
Frame rate                               : 30.000 FPS
Color space                              : YUV
Chroma subsampling                       : 4:2:0
Bit depth                                : 8 bits
Scan type                                : Progressive
Bits/(Pixel*Frame)                       : 0.074
Stream size                              : 558 MiB (75%)
Title                                    : www.movcr.com
Language                                 : English
Default                                  : Yes
Forced                                   : No

Audio #1
ID                                       : 2
Format                                   : MPEG Audio
Format version                           : Version 1
Format profile                           : Layer 3
Format settings                          : Joint stereo / MS Stereo
Codec ID                                 : A_MPEG/L3
Codec ID/Hint                            : MP3
Duration                                 : 2 h 1 min
Bit rate mode                            : Variable
Bit rate                                 : 96.0 kb/s
Channel(s)                               : 2 channels
Sampling rate                            : 44.1 kHz
Frame rate                               : 38.281 FPS (1152 SPF)
Compression mode                         : Lossy
Stream size                              : 87.1 MiB (12%)
Title                                    : www.movcr.com
Writing library                          : LAME3.99r
Encoding settings                        : -m j -V 4 -q 3 -lowpass 15.1 --abr 96
Language                                 : Hindi
Default                                  : Yes
Forced                                   : No

Audio #2
ID                                       : 3
Format                                   : MPEG Audio
Format version                           : Version 1
Format profile                           : Layer 3
Format settings                          : Joint stereo / MS Stereo
Codec ID                                 : A_MPEG/L3
Codec ID/Hint                            : MP3
Duration                                 : 2 h 1 min
Bit rate mode                            : Variable
Bit rate                                 : 112 kb/s
Nominal bit rate                         : 128 kb/s
Channel(s)                               : 2 channels
Sampling rate                            : 44.1 kHz
Frame rate                               : 38.281 FPS (1152 SPF)
Compression mode                         : Lossy
Stream size                              : 97.7 MiB (13%)
Title                                    : www.movcr.com
Writing library                          : LAME3.99r
Encoding settings                        : -m j -V 4 -q 3 -lowpass 17 --abr 128
Language                                 : English
Default                                  : No
Forced                                   : No









Files:

[movcr.com] Black Panther (2018) New HDCAM x264 -[Dual Audio] - [Hindi(Clear) + Eng] - 750MB - MovCr
  • Sample - Black Panther (2018) New HDCAM x264 -[Dual Audio] - [Hindi(Clear) + Eng] - 750MB - MovCr.mkv (13.8 MB)
  • www.movcr.com - Black Panther (2018) New HDCAM x264 -[Dual Audio] - [Hindi(Clear) + Eng] - 750MB - MovCr.mkv (745.2 MB)

Comments

Code:

  • udp://tracker.openbittorrent.com:80/announce
  • udp://tracker.coppersurfer.tk:6969/announce
  • udp://zer0day.ch:1337/announce
  • udp://tracker.leechers-paradise.org:6969/announce
  • udp://9.rarbg.com:2710/announce
  • udp://p4p.arenabg.com:1337/announce
  • udp://tracker.sktorrent.net:6969/announce
  • http://p4p.arenabg.com:1337/announce