ThemeForest - Law Practice v1.6 - Lawyers Attorneys Business Theme - 984854 ... | Un appartement à Paris | Lux Golden Divas Baatein with the Baadshah

Street Outlaws S10E14 99 Problems OKC HDTV x264 720

  • Category TV
  • Type HD
  • Language English
  • Total size 854.4 MB
  • Uploaded By HackRF
  • Downloads 423
  • Last checked 1 day ago
  • Date uploaded 2 months ago
  • Seeders 4
  • Leechers 0

Infohash : 4D75A587A68AD9E67684E9A9EEDA14DAB2C1E6B8

Street Outlaws
Season 10 Episode 14

99 Problems
2/12/2018






General
Complete name : Street Outlaws S10E14 99 Problems OKC HDTV x264 720.mkv
Format : Matroska
Format version : Version 4 / Version 2
File size : 854 MiB
Duration : 41 min 29 s
Overall bit rate : 2 879 kb/s
Encoded date : UTC 2018-02-13 03:12:49
Writing application : mkvmerge v15.0.0 ('Duel with the Devil') 64-bit
Writing library : libebml v1.3.5 + libmatroska v1.4.5

Video
ID : 1
Format : AVC
Format/Info : Advanced Video Codec
Format profile : [email protected]
Format settings, CABAC : Yes
Format settings, RefFrames : 5 frames
Codec ID : V_MPEG4/ISO/AVC
Duration : 41 min 29 s
Bit rate : 2 493 kb/s
Width : 1 280 pixels
Height : 720 pixels
Display aspect ratio : 16:9
Frame rate mode : Constant
Frame rate : 29.970 (29970/1000) FPS
Original frame rate : 29.970 (30000/1001) FPS
Color space : YUV
Chroma subsampling : 4:2:0
Bit depth : 8 bits
Scan type : Progressive
Bits/(Pixel*Frame) : 0.090
Stream size : 740 MiB (87%)
Default : Yes
Forced : No

Audio
ID : 2
Format : AC-3
Format/Info : Audio Coding 3
Format settings, Endianness : Big
Codec ID : A_AC3
Duration : 41 min 29 s
Bit rate mode : Constant
Bit rate : 384 kb/s
Channel(s) : 6 channels
Channel positions : Front: L C R, Side: L R, LFE
Sampling rate : 48.0 kHz
Frame rate : 31.250 FPS (1536 SPF)
Bit depth : 16 bits
Compression mode : Lossy
Stream size : 114 MiB (13%)
Language : new
Service kind : Complete Main
Default : Yes
Forced : No




Files:

Street Outlaws S10E14 99 Problems OKC HDTV x264 720
  • Downloaded from Katcr.co .txt (0.0 KB)
  • Downloaded from demonoid.pw.txt (0.0 KB)
  • Downloaded from preventionsante.org.txt (0.0 KB)
  • Street Outlaws.txt (3.0 KB)
  • Street Outlaws S10E14 99 Problems OKC HDTV x264 720.mkv (854.4 MB)

There are currently no comments. Feel free to leave one :)

Code:

  • udp://tracker.coppersurfer.tk:6969/announce
  • udp://tracker.trackerfix.com:80/announce
  • udp://9.rarbg.me:2710/announce
  • http://tracker.opentrackr.org:1337/announce
  • udp://inferno.demonoid.pw:3393/announce
  • udp://tracker.ilibr.org:6969/announce
  • udp://tracker.leechers-paradise.org:6969/announce
  • udp://tracker.zer0day.to:1337/announce
  • udp://eddie4.nl:6969/announce
  • udp://inferno.demonoid.pw:3391/announce
  • udp://tracker.leechers-paradise.org:6969