PadMan 2018 720p CAM x264

  • Category Movies
  • Type Bollywood
  • Language Hindi
  • Total size 1.2 GB
  • Uploaded By moviezworldz
  • Downloads 19665
  • Last checked 3 days ago
  • Date uploaded 1 week ago
  • Seeders 400
  • Leechers 103

Padman

ComedyDrama

Concerned about his wife Gayatri's menstrual hygiene, Lakshmikant Chauhan urges her to ditch the cloth and opt for sanitary napkins. Gayatri is reluctant to go for disposable pads as they are expensive. Lakshmi obsessing over a 'ladies problem' makes her cringe but he insists on bringing upon a change by addressing the taboo topic. Subjected to hostility for ruffling the religious and age-old beliefs of people around, can the man brave the resistance and get his point across?

Infohash : A1209F3335279DBE50494ED24CBE8AAB76016AA2




General
Format                      : Matroska
Format version              : Version 4 / Version 2
File size                   : 1.20 GiB
Duration                    : 2 h 12 min
Overall bit rate            : 1 304 kb/s

Video
ID                          : 1
Format                      : AVC
Format/Info                 : Advanced Video Codec
Format profile              : [email protected]
Format settings             : CABAC / 4 Ref Frames
Format settings, CABAC      : Yes
Format settings, ReFrames   : 4 frames
Codec ID                    : V_MPEG4/ISO/AVC
Duration                    : 2 h 12 min
Bit rate                    : 1 200 kb/s
Width                       : 1 280 pixels
Height                      : 544 pixels
Display aspect ratio        : 2.35:1
Frame rate mode             : Constant
Frame rate                  : 25.000 FPS
Color space                 : YUV
Chroma subsampling          : 4:2:0
Bit depth                   : 8 bits
Scan type                   : Progressive
Bits/(Pixel*Frame)          : 0.069
Stream size                 : 1.11 GiB (92%)
Writing library             : x264 core 148 r2708 86b7198
Default                     : Yes
Forced                      : No

Audio
ID                          : 2
Format                      : AAC
Format/Info                 : Advanced Audio Codec
Format profile              : LC
Codec ID                    : A_AAC-2
Duration                    : 2 h 12 min
Bit rate                    : 96.0 kb/s
Channel(s)                  : 2 channels
Channel positions           : Front: L R
Sampling rate               : 44.1 kHz
Frame rate                  : 43.066 FPS (1024 SPF)
Compression mode            : Lossy
Stream size                 : 90.8 MiB (7%)
Language                    : English
Default                     : Yes
Forced                      : No



















Files:

Pad Man 2018 720p DVDScr Rip x264
  • Pad Man 2018 720p DVDScr Rip x264.mkv (1.2 GB)

Comments

Code:

  • udp://tracker.coppersurfer.tk:6969/announce
  • udp://tracker.leechers-paradise.org:6969/announce
  • udp://inferno.demonoid.pw:3391/announce
  • udp://tracker.tntvillage.scambioetico.org:2710/announce
  • udp://tracker.pirateparty.gr:6969/announce
  • udp://9.rarbg.com:2770/announce
  • udp://public.popcorn-tracker.org:6969/announce
  • udp://tracker.zer0day.to:1337/announce
  • http://bigfoot1942.sektori.org:6969/announce
  • udp://ipv4.tracker.harry.lu:80/announce
  • udp://shadowshq.yi.org:6969/announce
  • udp://tracker.vanitycore.co:6969/announce
  • udp://tracker.opentrackr.org:1337/announce
  • udp://explodie.org:6969/announce
  • udp://tracker.zer0day.to:1337/announce
  • udp://tracker.leechers-paradise.org:6969/announce
  • udp://coppersurfer.tk:6969/announce